Skillerz-BestClan


 
PortalPortal  AcasaAcasa  CalendarCalendar  FAQFAQ  MembriMembri  GrupuriGrupuri  CautareCautare  ConectareConectare  InregistrareInregistrare  
Ultimele subiecte
» Idee/ideea >>>>
Sam Feb 19, 2011 2:52 pm Scris de joc rau :(

» Counter strike...ce vremuri....
Lun Ian 17, 2011 12:33 am Scris de joc rau :(

» Mp3 player
Vin Sept 11, 2009 6:04 pm Scris de joc rau :(

» Provocare !!!!
Lun Mai 04, 2009 2:57 pm Scris de @sul

» Sall am revenit!
Lun Mar 30, 2009 11:58 pm Scris de joc rau :(

» Fazan cat mai lung , si numai fazan , nimik altceva!!!
Lun Mar 16, 2009 5:40 pm Scris de joc rau :(

» Banc mai special ... >:)
Lun Dec 08, 2008 12:17 pm Scris de joc rau :(

» Testul de inteligenta
Joi Dec 04, 2008 10:52 pm Scris de joc rau :(

» Perle din sport
Dum Noi 23, 2008 9:33 am Scris de joc rau :(

» Perle ...
Dum Noi 23, 2008 9:32 am Scris de joc rau :(

» Stiati ca ...
Sam Noi 22, 2008 1:34 pm Scris de Skillerz | Punisher

» Povestiri amuzante 2
Sam Noi 22, 2008 1:32 pm Scris de Skillerz | Punisher

» Povestiri amuzante 1
Sam Noi 22, 2008 1:30 pm Scris de Skillerz | Punisher

» Perle din politica
Sam Noi 22, 2008 1:24 pm Scris de Skillerz | Punisher

» Perle din armata
Sam Noi 22, 2008 1:21 pm Scris de Skillerz | Punisher

Statistici
Avem 16 membri inregistrati
Cel mai nou utilizator inregistrat este: @sul

Membrii nostri au postat un numar de 944 mesaje în 251 subiecte
Top postatori
joc rau :(
 
Skillerz | Punisher
 
Mih@y-Skill
 
B3by
 
Skillerz | Ciupi
 
Max Payn3
 
Genius [no sound]
 
Shoot
 
InfiniTy
 
mikita
 
Google search
Google
top90
top 90
Adauga.eu
Publicitate Online

Distribuiți | 
 

 Garden Party (2008) [DvdRip] [Xvid]

Vezi subiectul anterior Vezi subiectul urmator In jos 
AutorMesaj
joc rau :(
Administrator
Administrator
avatar

Numarul mesajelor : 407
Varsta : 27
Location : Baia Mare
Data de inscriere : 10/09/2008

MesajSubiect: Garden Party (2008) [DvdRip] [Xvid]   Sam Noi 15, 2008 10:49 am

************************
* Garden Party (2008) *
************************

________________________
General Information |
________________________|
_______________________________________________________________
Type : Movie
Format : AVI
Format/Info : Audio Video Interleave
File size : 702Mb
Duration : 1h 28mn
Language : English
Source : Dvd NTSC
Subtitles : None
Genre : Drama
IMDB Link : http://www.imdb.com/title/tt0828393/
Rating : 7.8/10
_______________________________________________________________
________________________________________________________________
Video
Format : MPEG-4 Visual
Codec ID/Hint : XviD
Bit rate : 989 Kbps
Width : 608 pixels
Height : 336 pixels
Display aspect ratio : 16/9
Frame rate : 23.976 fps
Bits/(Pixel*Frame) : 0.202
Stream size : 624 MiB (89%)
_______________________________________________________________
Audio
Format : MPEG Audio
Codec ID/Hint : MP3
Bit rate mode : Variable
Bit rate : 112 Kbps
Channel(s) : 2 channels
Sampling rate : 48.0 KHz
Resolution : 16 bits
Stream size : 70.6 MiB (10%)
Writing library : LAME3.98.2
_______________________________________________________________
________________
Description
________________
_______________________________________________________________
Are you young, sexually confused, just trying to get by? Do
you sing, dance or possess some other talent? Welcome to the
world of GARDEN PARTY. At the center of the story is
15-year-old April (Willa Holland). She is running from
one bad situation into another, hoping to find an answer
that doesn't involve taking off her clothes. As April
navigates Los Angeles, she falls in with a group of
confused kids struggling to chase their dreams. The
black widow at the center of this web is a sexy, pot-dealing
realtor named Sally St. Clair (Vinessa Shaw). Anyone who gets
too close falls victim to her kinky entanglements. For some
it goes bad, for other worse, but that's just a day in the
life of the Garden Party.

http://www.torrentbox.com/download/247213/Garden%20Party%20%282008%29%20%5BDvdRip%5D%20%5BXvid%5D%20%7B1337x%7D-Noir.torrent
Sus In jos
Vezi profilul utilizatorului http://whatever.forumer.ro
 
Garden Party (2008) [DvdRip] [Xvid]
Vezi subiectul anterior Vezi subiectul urmator Sus 
Pagina 1 din 1

Permisiunile acestui forum:Nu puteti raspunde la subiectele acestui forum
Skillerz-BestClan :: Tutoriale :: Filme-
Mergi direct la: